<svg xmlns="http://www.w3.org/2000/svg" width="251" height="251" style="enable-background:new 0 0 251 251" xml:space="preserve"><font horiz-adv-x="1000"><font-face font-family="ProximaNova-Medium" underline-position="-120" underline-thickness="64"/><glyph horiz-adv-x="258"/><glyph unicode="A" horiz-adv-x="666" d="M496 138H169L115 0H5l265 667h125L660 0H550M198 227h269L332 580z"/><glyph unicode="G" horiz-adv-x="715" d="M392 678c110 0 198-44 264-132l-81-47c-20 27-46 48-78 65-33 17-68 25-105 25-46 0-87-11-124-32-37-22-66-52-87-91s-32-84-32-133 11-93 32-132 50-70 87-92 78-33 124-33c34 0 66 7 96 20s54 29 73 46v120H347v88h314V105c-33-37-73-65-118-86-46-21-96-32-151-32-63 0-121 15-174 44s-95 69-126 122-46 113-46 180 15 127 46 180 73 93 126 122 111 43 174 43z"/><glyph unicode="d" horiz-adv-x="578" d="M416 69c-19-25-42-44-69-59-28-15-58-22-89-22-42 0-79 10-112 31-33 20-58 49-76 87-19 38-28 83-28 135 0 51 9 95 28 134 18 38 43 68 76 89s70 31 112 31c31 0 60-7 88-21 27-15 51-35 70-61v254h90V0h-90m0 344c-13 20-31 37-56 51-25 13-51 20-78 20-45 0-80-16-106-48-27-33-40-75-40-126s13-92 40-124c26-33 61-49 106-49 27 0 53 7 78 20s43 30 56 50z"/><glyph unicode="e" horiz-adv-x="560" d="M284 495c47 0 89-11 125-34 35-23 63-54 82-93 19-40 28-85 28-134v-22H137c3-43 20-78 50-107 29-29 67-43 114-43 26 0 52 5 78 15s48 24 65 42l42-59c-24-23-52-41-85-53-33-13-70-19-109-19-48 0-91 11-128 32-38 21-68 51-89 90-22 38-33 82-33 132 0 46 10 88 31 127s50 69 87 92 78 34 124 34M136 277h295c-1 23-6 46-17 68s-27 40-49 55c-22 14-49 21-81 21-31 0-57-7-78-21-22-15-39-33-50-55s-18-45-20-68z"/><glyph unicode="i" horiz-adv-x="233" d="M58 621c0 16 6 30 18 41 11 11 25 17 40 17 16 0 30-6 41-17s17-25 17-41-6-29-17-40-25-17-41-17-30 6-41 17-17 24-17 40m14-138h90V0H72z"/><glyph unicode="l" horiz-adv-x="233" d="M72 667h90V0H72z"/><glyph unicode="m" horiz-adv-x="820" d="M659 322c0 29-7 52-20 69-14 16-35 24-64 24-23 0-46-7-68-20-22-14-39-30-52-49V0h-90v322c0 62-28 93-85 93-22 0-44-7-65-20-22-14-40-31-53-50V0H72v483h90v-68c12 19 33 37 63 54 29 17 60 26 93 26 35 0 64-8 86-24 22-17 37-39 45-66 15 25 38 46 68 64 30 17 62 26 95 26 45 0 79-12 102-37s35-61 35-109V0h-90z"/><glyph unicode="n" horiz-adv-x="559" d="M398 309c0 38-9 65-26 82-18 16-44 24-77 24-27 0-52-7-76-20-24-14-43-31-57-50V0H72v483h90v-68c18 22 42 41 73 57 31 15 63 23 98 23 51 0 89-13 116-39 26-27 39-66 39-117V0h-90z"/><glyph unicode="w" horiz-adv-x="744" d="M372 371 253 0h-93L8 483h94l110-368 121 368h78l121-368 110 368h94L584 0h-93z"/><glyph unicode="&amp;" horiz-adv-x="642" d="M619 0H499c-12 11-34 32-66 64-55-51-119-76-190-76-61 0-112 16-151 49-40 33-60 79-60 139 0 47 13 86 39 117 26 30 62 57 107 80-33 57-49 107-49 148 0 29 8 56 23 80 15 23 36 42 63 56 26 13 55 20 88 20 46 0 84-12 114-36 29-24 44-57 44-98 0-31-8-58-23-80-15-23-34-41-56-56-23-15-52-31-89-50 16-21 40-51 71-89l73-83c29 45 52 94 69 146l75-34c-31-70-61-126-91-168 39-41 82-84 129-129M258 412c40 20 70 39 91 58s31 42 31 69c0 22-7 39-20 52-14 12-32 18-53 18-24 0-44-8-61-25s-25-39-25-65c0-30 12-66 37-107m123-294c-42 44-71 76-87 96-29 35-56 68-79 101-27-17-49-36-64-57s-23-46-23-75c0-37 12-67 37-89s54-33 88-33c46 0 89 19 128 57z"/></font><font horiz-adv-x="1000"><font-face font-family="BebasKai" underline-position="-90" underline-thickness="50"/><glyph unicode="E" horiz-adv-x="388" d="M355 602v98H57V0h298v98H163v208h155v98H163v198z"/><glyph unicode="I" horiz-adv-x="220" d="M163 0v700H57V0z"/><glyph unicode="J" horiz-adv-x="301" d="M249 700H143V166c0-54-21-78-70-78-21 0-39 4-52 8L15-1c22-6 46-9 71-9 110 0 163 61 163 173z"/><glyph unicode="L" horiz-adv-x="351" d="M163 100v600H57V0h283v100z"/><glyph unicode="N" horiz-adv-x="459" d="M402 0v700H302V283h-2L175 700H57V0h100v464h2L298 0z"/><glyph unicode="O" horiz-adv-x="434" d="M217 710c-106 0-171-67-171-177V167C46 57 111-10 217-10s171 67 171 177v366c0 110-65 177-171 177m0-98c42 0 65-28 65-80V168c0-52-23-80-65-80s-65 28-65 80v364c0 52 23 80 65 80z"/><glyph unicode="R" horiz-adv-x="418" d="M286 0h112l-97 319c49 28 75 80 75 154v50c0 115-62 177-176 177H47V0h106v296h49m-49 306h43c51 0 74-27 74-86v-36c0-59-23-86-74-86h-43z"/><glyph unicode="S" horiz-adv-x="357" d="M183 710c-98 0-158-54-158-157v-17c0-76 32-133 126-220 69-63 89-95 89-139v-22c0-50-26-67-58-67-38 0-60 23-60 70v48L20 196v-46C20 47 86-10 184-10c97 0 162 54 162 157v34c0 81-32 138-126 225-69 63-89 95-89 134v15c0 40 22 57 53 57 37 0 55-22 55-70v-22l102 10v20c0 103-60 160-158 160z"/><glyph unicode="T" horiz-adv-x="352" d="M342 600v100H10V600h113V0h106v600z"/><glyph unicode="U" horiz-adv-x="430" d="M379 700H273V160c0-51-23-70-60-70s-60 19-60 70v540H51V157C51 47 114-10 214-10c102 0 165 57 165 167z"/><glyph unicode="W" horiz-adv-x="593" d="m466 0 108 700H468l-61-464h-2l-60 464h-94l-60-464h-2l-61 464H19L127 0h108l61 417h2L358 0z"/><glyph horiz-adv-x="190"/></font>
</svg>
